Portal  •   Forum  •  FAQ  •  Busca  •  Grupos  •  Registrar  •  Perfil  •  Mensagens privadas  •  Entrar
Aplicativos Ebooks e AudioBooks Filmes Games de Consoles Games de PC Infantil e Anime Séries Shows e Full Álbuns TVRips e Documentários
Menu de navegação
 Navegação
Home Home
Fórum Fórum
 Índice
  Aplicativos
  Ebooks e AudioBooks
  Filmes
  Games de Consoles
  Games de PC
  Infantil e Anime
  Séries
  Shows e Full Álbuns
  TVRips e Documentários
 Ferramentas
Tópicos recentes Tópicos recentes
Sites úteis Sites úteis
 Sobre
FAQ FAQ
Administração Administração
Grupos Grupos
Estatísticas Estatísticas
Selos Selos
Contate-nos Contate-nos

Membros + ativos
Membro Postagens
 rodrix   8100
 Junior   5496
 c_henrique_bs   3606
 scream   3042
 Shaka   2303
 nokas1   1945
 jomausar   1217
 weasel666   1171
 alegrosso   1008
 BrNn°   935

Pesquisa rápida


[ Pesquisa avançada ]

Tópicos recentes
Assine nosso Feed com os últimos tópicos
 The Alienist - S.01 [Em Exibição]
by PootzForce Evolution on Qui Mai 23, 2019 12:59 am

 Ray Donovan - S.01-06 [Em Exibição]
by PootzForce Evolution on Qui Mai 23, 2019 12:59 am

 Pretty Little Liars: The Perfectionists - S.01 [Em Exibição]
by PootzForce Evolution on Qui Mai 23, 2019 12:59 am

 Whiskey Cavalier - S.01 [Em Exibição]
by PootzForce Evolution on Qui Mai 23, 2019 12:59 am

 Chicago PD - S.01-06 [Em Exibição]
by PootzForce Evolution on Qui Mai 23, 2019 12:59 am

 Chicago Med - S.01|02|03|04 [Em Exibição]
by PootzForce Evolution on Qui Mai 23, 2019 12:59 am

 Chicago Fire - S.01-07 [Em Exibição]
by PootzForce Evolution on Qui Mai 23, 2019 12:59 am

 [HDTS] John Wick Chapter 3 Parabellum (2019) *1XBET*
by gaggiopforce on Qua Mai 22, 2019 6:48 pm

 American Housewife - S.01|02|03 [Em Exibição]
by PootzForce Evolution on Qua Mai 22, 2019 6:07 pm

 The Village - S.01 [Em Exibição]
by PootzForce Evolution on Qua Mai 22, 2019 6:07 pm


Enquete

Não há nenhuma enquete no momento

Aniversariantes
Aniversariantes de hoje: alextrankera (40), And (46), Brian Almeida (43), digo123 (51), elianafnc (51), granett (47), guy mantese (71), hrijo (48), JAQUELINE BORGES BARBIERI (44), jeison (33), joseluiz302 (51), klaus v. gomes (33), Klaus Volcov Gomes (33), mydk (39), PAI (58), ROMA2010 (51), roxsilva (51), smkgyn (40)
Próximos eventos:
Nenhum

últimas visitas
No total, nenhum usuário visitou este fórum Hoje -
deep_purple em Qui Mai 23, 2019 12:03 am
kaanro em Qua Mai 22, 2019 9:25 pm
wladimir em Qua Mai 22, 2019 8:30 pm
nandosan em Qua Mai 22, 2019 7:54 pm
hsilvo em Qua Mai 22, 2019 7:06 pm
praia901 em Qua Mai 22, 2019 6:53 pm
megaprobahia em Qua Mai 22, 2019 6:53 pm
gaggiopforce em Qua Mai 22, 2019 6:39 pm

Estatísticas
Temos 15214 usuários registrados
O mais novo usuário registrado É osama121

Nossos usuários postaram um total de 59784 mensagens

Estatísticas Online
No total, nenhum usuário visitou este fórum Hoje -  
Usuários registrados: Nenhum

Parceiros


Não há nenhum artigo atualmente


Qua Abr 08, 2009 10:16 pm by aLLaN®

Elenco:
Shane West ... Jeff Keller
Leonard Roberts ... Marcus Howston
Aldis Hodge ... Trevor Anderson
Callum Blue ... Gregory Wilcox
Brendan Miller ... Chard Davies
Theo Rossi ... Tino Hull
Noel Gugliemi ... Jorge Wardell
Mercedes Masöhn ... Mulher árabe

Ficha Técnica:
Título Oficial: Red Sands
Título No Brasil: Força Maligna
Ano De Lançamento: 2009
Direção: Alex Turner
Roteiro: Simon Barrett
Gênero: Ação/Terror
Origem: Estados Unidos
Duração: 88 minutos
Tipo: Longa

Link de Referência: Image

Imagens:
Image
Image
Image

Informações do Arquivo:
General
Complete name                    : Força.Maligna.2009.DUBLADO.DVDRip.Xvid.AC3.5.1.By.aLLaN®.avi
Format                           : AVI
Format/Info                      : Audio Video Interleave
File size                        : 1.09 GiB
Duration                         : 1h 28mn
Overall bit rate                 : 1 765 Kbps
Writing application              : VirtualDubMod 1.5.10.2 (build 2542/release)
Writing library                  : VirtualDubMod build 2542/release

Video
Format                           : MPEG-4 Visual
Format profile                   : Streaming Video@L1
Format settings, BVOP            : Yes
Format settings, QPel            : No
Format settings, GMC             : No warppoints
Format settings, Matrix          : Default (H.263)
Muxing mode                      : Packed bitstream
Codec ID                         : XVID
Codec ID/Hint                    : XviD
Duration                         : 1h 28mn
Bit rate                         : 1 373 Kbps
Width                            : 704 pixels
Height                           : 368 pixels
Display aspect ratio             : 1.913
Frame rate                       : 23.976 fps
Resolution                       : 24 bits
Colorimetry                      : 4:2:0
Scan type                        : Progressive
Bits/(Pixel*Frame)               : 0.221
Stream size                      : 871 MiB (78%)
Writing library                  : XviD 1.2.1 (UTC 2008-12-04)

Audio
Format                           : AC-3
Format/Info                      : Audio Coding 3
Codec ID                         : 2000
Duration                         : 1h 28mn
Bit rate mode                    : Constant
Bit rate                         : 384 Kbps
Channel(s)                       : 6 channels
Channel positions                : Front: L C R, Surround: L R, LFE
Sampling rate                    : 48.0 KHz
Stream size                      : 244 MiB (22%)
Alignment                        : Split accross interleaves
Interleave, duration             : 64 ms (1.53 video frames)
Interleave, preload duration     : 500 ms


Agradecimentos:
rafael_p <<UP>> #2
PATYNETO

Links:
Força.Maligna.2009.DUBLADO.DVDRip.Xvid.AC3.5.1.By.aLLaN.avi  [1,09 Gb]
Entrar
Usuário:

Senha:

 Salvar senha



Eu esqueci a senha

Não É cadastrado?
cadastre-se agora mesmo!


Quem está on-line

6 usuários on-line: 0 registrados, 0 invisíveis e 6 visitantes

Nenhum

[ Ver a lista completa ]


O recorde de usuários on-line foi de 563 em Sáb Nov 10, 2018 7:46 pm


SÉRIES
Novos Episódios
Assine nosso Feed com as últimas séries



Traduzido por phpBB Brasil, LFCSSP - Corrigido por Megabot
Powered by phpBB2 Plus based on phpBB © 2001, 2002 phpBB Group :: style by newacts.de :: based on FI Theme :: CrÉditos & MODs